EduKon.net » Tutorials » Ezra Firestone - Smart Social Live

 

Ezra Firestone - Smart Social Live

Author: mata00

Ezra Firestone - Smart Social Live
Ezra Firestone - Smart Social Live
WEBRip | English | MP4 + Project files | 1280 x 720 | AVC ~1119 Kbps | 30 fps
AAC | 93.0 Kbps | 44.1 KHz | 2 channels | ~7 hours | 4.06 GB
Genre: eLearning Video / Business, Sales, Marketing

Master the Social Selling System I use to help generate $25M in yearly revenue online.


"Ezra Firestone - Smart Social Live"

HI-SPEED DOWNLOAD
Free 300 GB with Full DSL-Broadband Speed!




In this LIVE 4-week crash course, you will learn how to grow your business using the world's largest advertising platform. Together we'll set up the technology for your sales system and implement winning sales funnels, including engaging video ads, compelling product offer pages, and my #1 method for selling products online: the pre-sell engagement article.


General
Complete name : 02-Session 2.mp4
Format : MPEG-4
Format profile : Base Media
Codec ID : isom (isom/iso2/avc1/mp41)
File size : 698 MiB
Duration : 1 h 20 min
Overall bit rate mode : Variable
Overall bit rate : 1 217 kb/s
Season : 0
Movie name : 02-Session 2
Part : 0

AppleStoreCatalogID : 0
Xtra : WM/Category

Video
ID : 1
Format : AVC
Format/Info : Advanced Video Codec
Format profile : [email protected]
Format settings : 1 Ref Frames
Format settings, CABAC : No
Format settings, RefFrames : 1 frame
Format settings, GOP : M=1, N=12
Codec ID : avc1
Codec ID/Info : Advanced Video Coding
Duration : 1 h 20 min
Bit rate : 1 119 kb/s
Width : 1 280 pixels
Height : 720 pixels
Display aspect ratio : 16:9
Frame rate mode : Constant
Frame rate : 30.000 FPS
Color space : YUV
Chroma subsampling : 4:2:0
Bit depth : 8 bits
Scan type : Progressive
Bits/(Pixel*Frame) : 0.040
Stream size : 642 MiB (92%)
Encoded date : UTC 2018-07-21 11:51:13
Tagged date : UTC 2018-07-21 11:51:13
Menus : 3

Audio
ID : 2
Format : AAC
Format/Info : Advanced Audio Codec
Format profile : LC
Codec ID : mp4a-40-2
Duration : 1 h 20 min
Bit rate mode : Variable
Bit rate : 93.0 kb/s
Maximum bit rate : 135 kb/s
Channel(s) : 2 channels
Channel positions : Front: L R
Sampling rate : 44.1 kHz
Frame rate : 43.066 FPS (1024 SPF)
Compression mode : Lossy
Stream size : 53.3 MiB (8%)
Encoded date : UTC 2018-07-21 11:51:13
Tagged date : UTC 2018-07-21 11:51:13

Menu
ID : 3
Codec ID : text
Duration : 1 h 20 min
Encoded date : UTC 2018-07-23 12:42:23
Tagged date : UTC 2018-07-23 12:42:23
Menu For : 1
00:00:00.000 : Chapter 1


Screenshots

Ezra Firestone - Smart Social Live


Link Download:


Download Via Uploadgig Free Download
http://uploadgig.com/file/download/Ff5378aA5a368296/Ezra.Firestone.Smart.Social.Live.part1.rar
http://uploadgig.com/file/download/a52df5b2895c68A3/Ezra.Firestone.Smart.Social.Live.part2.rar
http://uploadgig.com/file/download/44d1be9484A5C4d6/Ezra.Firestone.Smart.Social.Live.part3.rar
http://uploadgig.com/file/download/474c28a37293eedD/Ezra.Firestone.Smart.Social.Live.part4.rar
http://uploadgig.com/file/download/76dfda63957Ec711/Ezra.Firestone.Smart.Social.Live.part5.rar

Download Via Nitroflare
http://nitroflare.com/view/28C07734FE340E6/Ezra.Firestone.Smart.Social.Live.part1.rar
http://nitroflare.com/view/BF2A62B827D31EA/Ezra.Firestone.Smart.Social.Live.part2.rar
http://nitroflare.com/view/4CF70D5C8AE4881/Ezra.Firestone.Smart.Social.Live.part3.rar
http://nitroflare.com/view/FA5D3AF5C68E36B/Ezra.Firestone.Smart.Social.Live.part4.rar
http://nitroflare.com/view/EE0FD86C3E98D9E/Ezra.Firestone.Smart.Social.Live.part5.rar

Download Via Rapidgator
http://rg.to/file/a93cf5cee721102503384748f3c14f21/Ezra.Firestone.Smart.Social.Live.part1.rar.html
http://rg.to/file/2e19426ee39a49b2ca10d923ea557e6b/Ezra.Firestone.Smart.Social.Live.part2.rar.html
http://rg.to/file/7ec2e9627676b5a625cf835ab35f3aaf/Ezra.Firestone.Smart.Social.Live.part3.rar.html
http://rg.to/file/ed9fc281a4e2ff21e2c96ffe80f0e15f/Ezra.Firestone.Smart.Social.Live.part4.rar.html
http://rg.to/file/0de3ec8b0071c8d808e7e1826a7d8279/Ezra.Firestone.Smart.Social.Live.part5.rar.html


Extract files with WinRar Latest !

P A S S W O R D    P R O T E C T E D ! 
PASSWORD WILL BE PUBLISHED HERE TOMORROW!
 PLEASE ADD PAGE TO YOUR FAVORITS

Free 300 GB with 10 GB High-Speed(No Password BACKUP)


Hide Your IP & Protect Your Privacy!
Get Your 15 Day Free Trial Now.

Category: Tutorials


Tags: Ezra, Firestone, Smart, Social, Live

Ezra Firestone - Smart Social Live Fast Download via Rapidshare Upload Filehosting Megaupload, Ezra Firestone - Smart Social Live Torrents and Emule Download or anything related.
Information
Comment on the news site is possible only within (days) days from the date of publication.